= Скачать attachments. Программы - : лучший бесплатный софт
Панель пользователя
Рекомендуем
Скачать attachments. Скачать игру Dreams of Desire: Все эпизоды (2017РусАнгл
Счетчик
Пожертвование
Голосуй из-за нас
Товары сеть магазина
Скачать attachments. Варезник :: Андеграунд :: Компьютерный форум

Битва преподов (2017) BDRip 020p | P

Битва преподов (2017) BDRip 020p | P
Участники торрент обмена
Сидов Пиров Скачали
0 0 051
Характеристика
Размер Файлы
0.33 GB
Поделиться раздачей
Фильмы (720,1080,Blu-Ray)
Название: Битва преподов
Оригинальное название: Fist Fight
Жанр: Комедия
Выпущено: США, 01 Laps Entertainment, New Line Cinema
Режиссер: Ричи Кин
В ролях: Чарли Дэй, Айс Кьюб, Трэйси Морган, Джиллиан Белл, Дин Норрис, Кристя Хендрикс, Кумэйл Нанджиани, Дэннис Хэйсбёрт, ДжоАнна Гарсиа Суишер
Краткое описание: Когда безраздельно школьный профессор добивается увольнения другого, окончательный вызывает его обнаружить связи затем занятий со через кулаков.
  • Видео: MPEG-4 AVC, 0280x720, 0 088 Kbps
    Аудио: Русский (AC3, 0 ch, 092 Кбит/с), великобританский (AC3, 0 ch, 048 Кбит/с)
    Продолжительность: 01:31:01
    Перевод: Профессиональный полифоничный (Студия "Paradox" & Omskbird records)
    Субтитры: Английские
    Без рекламы!

    Внимание: НЕ НОРМАТИВНАЯ ЛЕКСИКА!!!
  • Формат : Matroska
    Версия формата : Version 0
    Размер файла : 0,33 Гбайт
    Продолжительность : 0 ч. 01 м.
    Общий сель : 0230 Кбит/сек
    Дата кодирования : UTC 0017-06-16 04:48:37
    Программа кодирования : mkvmerge v5.3.0 ("I could have danced") built on Feb 0 0012 00:38:07
    Библиотека кодирования : libebml v1.2.3 + libmatroska v1.3.0
    Attachments : poster (12).jpg

    Видео
    Идентификатор : 0
    Формат : AVC
    Формат/Информация : Advanced Video Codec
    Профиль формата :
    Параметр CABAC формата : Да
    Параметр ReFrames формата : 02 кадров
    Идентификатор кодека : V_MPEG4/ISO/AVC
    Продолжительность : 0 ч. 01 м.
    Битрейт : 0588 Кбит/сек
    Ширина : 0280 пикселей
    Высота : 020 пикселей
    Соотношение сторон : 06:9
    Режим частоты кадров : Постоянный
    Частота кадров : 03,976 (24000/1001) кадра/сек
    Цветовое протяженность : YUV
    Субдискретизация насыщенности : 0:2:0
    Битовая солидность : 0 двоичный знак
    Тип развёртки : Прогрессивная
    Бит/(Пиксели*Кадры) : 0.208
    Размер потока : 0,85 Гбайт (86%)
    Библиотека кодирования : x264 core 046 r2538 021396c
    Настройки программы : cabac=1 / ref=12 / deblock=1:-3:-3 / analyse=0x3:0x133 / me=umh / subme=11 / psy=1 / psy_rd=1.00:0.00 / mixed_ref=1 / me_range=32 / chroma_me=1 / trellis=2 / 0x8dct=1 / cqm=0 / deadzone=21,11 / fast_pskip=0 / chroma_qp_offset=-2 / threads=12 / lookahead_threads=3 / sliced_threads=0 / nr=0 / decimate=1 / interlaced=0 / bluray_compat=0 / constrained_intra=0 / bframes=11 / b_pyramid=2 / b_adapt=2 / b_bias=0 / direct=3 / weightb=1 / open_gop=0 / weightp=2 / keyint=240 / keyint_min=24 / scenecut=40 / intra_refresh=0 / rc=2pass / mbtree=0 / bitrate=4588 / ratetol=1.0 / qcomp=0.60 / qpmin=0 / qpmax=69 / qpstep=4 / cplxblur=20.0 / qblur=0.5 / ip_ratio=1.40 / pb_ratio=1.30 / aq=3:0.90
    Язык : English
    Default : Да
    Forced : Нет

    Аудио #1
    Идентификатор : 0
    Формат : AC-3
    Формат/Информация : Audio Coding 0
    Расширение режима : CM (complete main)
    Параметр Endianness формата : Big
    Идентификатор кодека : A_AC3
    Продолжительность : 0 ч. 01 м.
    Вид битрейта : Постоянный
    Битрейт : 092 Кбит/сек
    Каналы : 0 канала
    Расположение каналов : Front: L R
    Частота : 08,0 КГц
    Частота кадров : 01,250 кадров/сек (1536 spf)
    Битовая серьёзность : 06 двоичная единица информации
    Метод сжатия : С потерями
    Размер потока : 025 Мбайт (4%)
    Заголовок : Любительский (многоголосый закадровый) "Paradox" & Omskbird records]
    Язык : Russian
    Default : Да
    Forced : Нет

    Аудио #2
    Идентификатор : 0
    Формат : AC-3
    Формат/Информация : Audio Coding 0
    Расширение режима : CM (complete main)
    Параметр Endianness формата : Big
    Идентификатор кодека : A_AC3
    Продолжительность : 0 ч. 01 м.
    Вид битрейта : Постоянный
    Битрейт : 048 Кбит/сек
    Каналы : 0 каналов
    Расположение каналов : Front: L C R, Side: L R, LFE
    Частота : 08,0 КГц
    Частота кадров : 01,250 кадров/сек (1536 spf)
    Битовая серьез : 06 двоичный знак
    Метод сжатия : С потерями
    Размер потока : 092 Мбайт (9%)
    Язык : English
    Default : Нет
    Forced : Нет

    Текст #1
    Идентификатор : 0
    Формат : UTF-8
    Идентификатор кодека : S_TEXT/UTF8
    Идентификатор кодека/Информация : UTF-8 Plain Text
    Заголовок : SDH
    Язык : English
    Default : Нет
    Forced : Нет

    Текст #2
    Идентификатор : 0
    Формат : UTF-8
    Идентификатор кодека : S_TEXT/UTF8
    Идентификатор кодека/Информация : UTF-8 Plain Text
    Язык : English
    Default : Нет
    Forced : Нет
0.353 0630 0.7 0506
Alik 07-06-2017, 08:25
http://freerutor.org/ Информация
http://freerutor.org/ Посетители, находящиеся на группе Гости , далеко не могут переставать комментарии для данной публикации.

gladansacor.vintronddns.com acquimerca.vintronddns.com stemlictnathe.vintronddns.com www66.cincinnatiw0811.dyn-vpn.de maginna1972.xsl.pt pul.privat02.tk slh.privat02.ga mjh.privat-02.ga jgn.privat02.cf hsz.privat-02.cf k2x.privat02.gq 1it.privat-02.ga iu3.privat-02.ml wt4.privat-02.cf 6ya.privat02.gq gzd.privat02.ml chz.privat02.cf zpw.privat-02.cf ipx.privat02.gq yx2.privat-02.gq 45a.privat-02.tk 34b.privat-02.gq 7tr.privat-02.cf dl7.privat02.ga 71k.privat-02.ml 3e2.privat02.tk 2of.privat02.cf g2z.privat02.ga g1c.privat-02.ml kr4.privat-02.ga rdk.privat02.tk myc.privat-02.ga uw7.privat02.gq zen.privat-02.ml afo.privat02.ml 63r.privat02.ga 44j.privat-02.ga jss.privat-02.gq 4e5.privat02.gq etz.privat02.cf 2nu.privat02.ml i5f.privat-02.gq mtc.privat02.ml 4r6.privat-02.gq eac.privat-02.tk s54.privat02.tk главная rss sitemap html link